Captain America The First Avenger (2011) 1080p BluRay Hindi DD 5.1Ch - Eng DD 5.1Ch ~ MANN KT

Posted on July 11, 2018 in Movies » Misc

Size: 8.3 GB , Seeds: 1 , Peers: 2 ( Updated July 11, 2018 - Refresh )

* Download via Magnet Link , * To download files you need a Bittorrent Client , * How to download torrents from Bit Torrent Scene?

Scrape History ( seeds + peers )

Internal Files

Captain America The First Avenger (2011) 1080p BluRay Hindi DD 5.1Ch - Eng DD 5.1Ch ~ MANN KT
Captain America The First Avenger   2011).mkv (8.2 GB

Sample.mkv   71.2 MB

Captain America The First Avenger   2011).jpg (9.5 MB

Hash Code

fbeeb3fd43ab9c0c6a35a1db3450f238f656252c

Description

Captain America The First Avenger (2011) 1080p BluRay Hindi DD 5.1Ch - Eng DD 5.1Ch ~ MANN KT


SCREENSHOT

General


Format                      : Matroska

Format version              : Version 4 / Version 2

File size                   : 8.21 GiB

Duration                    : 2 h 4 min

Overall bit rate            : 9 463 kb/s

Movie name                  : MANN KT



Video

ID                          : 1

Format                      : AVC

Format/Info                 : Advanced Video Codec

Format profile              : [email protected]
Format settings, CABAC      : Yes

Format settings, ReFrames   : 5 frames

Codec ID                    : V_MPEG4/ISO/AVC

Duration                    : 2 h 4 min

Bit rate                    : 8 569 kb/s

Width                       : 1 920 pixels

Height                      : 816 pixels

Display aspect ratio        : 2.35:1

Frame rate mode             : Constant

Frame rate                  : 23.976 (24000/1001) FPS

Color space                 : YUV

Chroma subsampling          : 4:2:0

Bit depth                   : 8 bits

Scan type                   : Progressive

Bits/(Pixel*Frame)          : 0.228

Stream size                 : 7.43 GiB (91%)

Title                       : MANN KT

Language                    : English

Default                     : Yes

Forced                      : No


Audio #1

ID                          : 2

Format                      : AC-3

Format/Info                 : Audio Coding 3

Mode extension              : CM (complete main)

Format settings, Endianness : Big

Codec ID                    : A_AC3

Duration                    : 2 h 4 min

Bit rate mode               : Constant

Bit rate                    : 448 kb/s

Channel(s)                  : 6 channels

Channel positions           : Front: L C R, Side: L R, LFE

Sampling rate               : 48.0 kHz

Frame rate                  : 31.250 FPS (1536 spf)

Bit depth                   : 16 bits

Compression mode            : Lossy

Stream size                 : 396 MiB (5%)

Title                       : MANN KT

Language                    : Hindi

Default                     : Yes

Forced                      : No


Audio #2

ID                          : 3

Format                      : AC-3

Format/Info                 : Audio Coding 3

Mode extension              : CM (complete main)

Format settings, Endianness : Big

Codec ID                    : A_AC3

Duration                    : 2 h 4 min

Bit rate mode               : Constant

Bit rate                    : 448 kb/s

Channel(s)                  : 6 channels

Channel positions           : Front: L C R, Side: L R, LFE

Sampling rate               : 48.0 kHz

Frame rate                  : 31.250 FPS (1536 spf)

Bit depth                   : 16 bits

Compression mode            : Lossy

Stream size                 : 398 MiB (5%)

Title                       : MANN KT

Language                    : English

Default                     : No

Forced                      : No


SCREENSHOTS


SCREENSHOT

ENJOY

Torrent location

http://www.1337x.to/torrent/3108230/Captain-America-The-First-Avenger-2011-1080p-BluRay-Hindi-DD-5-1Ch-Eng-DD-5-1Ch-MANN-KT/

Trackers

Refresh Leechers : Updated July 11, 2018

1. udp://9.rarbg.com:2710/announce

2. udp://tracker.opentrackr.org:1337/announce

3. udp://tracker.pirateparty.gr:6969/announce

4. udp://tracker.leechers-paradise.org:6969/announce

5. udp://tracker.coppersurfer.tk:6969/announce

6. udp://tracker.zer0day.to:1337/announce

Comments

You must log in to add a comment.

Embed Code

Sharing Widget

Related torrents

FILENAME SIZE SEEDS PEERS ADDED UPD
[i]
[i]
Captain America - The First Avenger (2011) 720p BrRip x264 - 750
Movies - Action , Quality: Audio 9/10 - Video 9/10
757.3 MB 747 221 6 years 2 months
[i] Captain.America.The.First.Avenger.2011.1080p.BluRay.AC3.X264-ETRG 3.36 GB 184 85 1 year 5 months
[i]
[i]
Captain America : The First Avenger 2011 FRENCH REPACK BDRiP XViD-AViTECH [TiNO]
Movies - Action , Quality: Audio 9/10 - Video 9/10
700.3 MB 127 10 6 years 1 year
[i] Captain.America.The.First.Avenger.2011.BRRIP.XviD.AbSurdiTy 713.3 MB 35 4 6 years 1 year
[i] Captain America The First Avenger 3d (2011) HSBS YIFY 1.81 GB 15 4 6 years 1 year
[i]
[i]
Captain America The First Avenger (2011) DVDRip XviD-MAX
Movies - Sci-fi , Quality: Audio 9/10 - Video 9/10
1.15 GB 12 3 6 years 1 year
[i] Captain.America.The.First.Avenger.2011.720p.BluRay.x264-NeZu 1.32 GB 9 1 2 years 10 months
[i] Captain America The First Avenger (2011)720p BRRip x264[Dual-Audio][English-Hindi][Mi2ul9965][WBRG]
posted by mi2ul9965 in Movies - Action
882.3 MB 8 9 4 years 1 year
[i] Captain.America.The.First.Avenger.2011.x264.DTS-WAF 2.06 GB 6 1 6 years 1 year
[i] Captain.America.The.First.Avenger.2011.Bluray.1080p.DTS-HD-7.1.x 18.79 GB 5 7 4 years 1 year

Top Movies ( auto generated report )

FILENAME SIZE SEEDS PEERS ADDED UPD
[i] Overboard (2018) [WEBRip] [720p] [YTS AM] 950.69 MB 4553 1748 4 days 1 day
[i] How It Ends (2018) [WEBRip] [720p] [YTS AM] 970.57 MB 2855 1125 4 days 4 hours
[i] Overboard (2018) [WEBRip] [1080p] [YTS AM] (1) 1.79 GB 2987 1164 4 days 3 days
[i] Siberia (2018) [WEBRip] [720p] [YTS AM] 891.58 MB 2776 1456 4 days 3 days
[i] Furious (2017) [BluRay] [720p] [YTS AM] 1018.36 MB 2730 859 4 days 1 day
[i] How It Ends (2018) [WEBRip] [1080p] [YTS AM] 1.82 GB 2685 1386 4 days 3 days
[i] Furious (2017) [BluRay] [1080p] [YTS AM] 1.9 GB 2622 1258 4 days 3 days
[i] Siberia (2018) [WEBRip] [1080p] [YTS AM] 1.67 GB 1989 917 4 days 3 days
[i] 7 Splinters in Time (2018) [WEBRip] [720p] [YTS AM] 653.09 MB 1218 446 4 days 3 days
[i] Tango One (2018) [BluRay] [720p] [YTS AM] 967.28 MB 1073 689 1 day 14 hours