Kallai FM (2018) Malayalam - LQ - Original - DVDRip - x264 - 700MB - AAC - MovCr

Posted on July 11, 2018 in Movies » Misc

Size: 686.9 MB , Seeds: 2 , Peers: 5 ( Updated July 11, 2018 - Refresh )

* Download via Magnet Link , * To download files you need a Bittorrent Client , * How to download torrents from Bit Torrent Scene?

Scrape History ( seeds + peers )

Internal Files

Kallai FM (2018) Malayalam - LQ - Original - DVDRip - x264 - 700MB - AAC - MovCr
[MovCr.com] - Kallai FM   2018) Malayalam - Original - DVDRip - x264 - 700MB - AAC - MovCr.mkv (686.9 MB

Hash Code

a319b5e1600e311f0980f25bb4d9e64c9711a7cc

Description

http://movcr.com

Kallai FM (2018) Malayalam - LQ - Original - DVDRip - x264 - 700MB - AAC - MovCr
SCREENSHOT

Video

ID : 1

Format : AVC

Format/Info : Advanced Video Codec

Format profile : [email protected]
Format settings : CABAC / 4 Ref Frames

Format settings, CABAC : Yes

Format settings, ReFrames : 4 frames

Codec ID : V_MPEG4/ISO/AVC

Duration : 1 h 53 min

Bit rate : 797 kb/s

Width : 640 pixels

Height : 272 pixels

Display aspect ratio : 2.35:1

Frame rate mode : Constant

Frame rate : 29.970 (30000/1001) FPS

Color space : YUV

Chroma subsampling : 4:2:0

Bit depth : 8 bits

Scan type : Progressive

Bits/(Pixel*Frame) : 0.153

Stream size : 634 MiB (92%)

Title : www.MovCr.com

Writing library : x264 core 112

Encoding settings : cabac=1 / ref=2 / deblock=1:0:0 / analyse=0x1:0x111 / me=hex / subme=6 / psy=1 / psy_rd=1.00:0.00 / mixed_ref=0 / me_range=16 / chroma_me=1 / trellis=0 / 8x8dct=0 / cqm=0 / deadzone=21,11 / fast_pskip=1 / chroma_qp_offset=-2 / threads=12 / sliced_threads=0 / nr=0 / decimate=1 / interlaced=0 / constrained_intra=0 / bframes=2 / b_pyramid=2 / b_adapt=1 / b_bias=0 / direct=1 / weightb=0 / open_gop=0 / weightp=2 / keyint=300 / keyint_min=29 / scenecut=40 / intra_refresh=0 / rc_lookahead=40 / rc=abr / mbtree=1 / bitrate=797 / ratetol=1.0 / qcomp=0.60 / qpmin=3 / qpmax=51 / qpstep=4 / ip_ratio=1.40 / aq=1:1.00

Language : English

Default : Yes

Forced : No

Color range : Limited

Color primaries : BT.601 NTSC

Transfer characteristics : BT.709

Matrix coefficients : BT.601


Audio

ID : 2

Format : AAC

Format/Info : Advanced Audio Codec

Format profile : LC

Codec ID : A_AAC-2

Duration : 1 h 53 min

Bit rate : 63.1 kb/s

Channel(s) : 2 channels

Channel positions : Front: L R

Sampling rate : 44.1 kHz

Frame rate : 43.066 FPS (1024 SPF)

Compression mode : Lossy

Stream size : 51.1 MiB (7%)

Title : www.MovCr.com

Language : English

Default : Yes

Forced : No




SCREENSHOTSCREENSHOTSCREENSHOT



Torrent location

http://www.1337x.to/torrent/3107711/Kallai-FM-2018-Malayalam-LQ-Original-DVDRip-x264-700MB-AAC-MovCr/

Trackers

Refresh Leechers : Updated July 11, 2018

1. udp://9.rarbg.com:2710/announce

2. udp://tracker.opentrackr.org:1337/announce

3. udp://tracker.pirateparty.gr:6969/announce

4. udp://tracker.leechers-paradise.org:6969/announce

5. udp://tracker.coppersurfer.tk:6969/announce

6. udp://tracker.zer0day.to:1337/announce

Comments

You must log in to add a comment.

Embed Code

Sharing Widget

Related torrents

FILENAME SIZE SEEDS PEERS ADDED UPD
[i] Kallai FM (2018) Malayalam DVDRip -XviD - 700MB - MP3[MOVCR] mkv
posted by Tamilgun in Movies - Action
699.25 MB 6 3 1 week 2 days

Top Movies ( auto generated report )

FILENAME SIZE SEEDS PEERS ADDED UPD
[i] Overboard (2018) [WEBRip] [720p] [YTS AM] 950.69 MB 4553 1748 4 days 1 day
[i] How It Ends (2018) [WEBRip] [720p] [YTS AM] 970.57 MB 2855 1125 4 days 12 hours
[i] Overboard (2018) [WEBRip] [1080p] [YTS AM] (1) 1.79 GB 2987 1164 4 days 3 days
[i] Siberia (2018) [WEBRip] [720p] [YTS AM] 891.58 MB 2776 1456 4 days 3 days
[i] Furious (2017) [BluRay] [720p] [YTS AM] 1018.36 MB 2730 859 4 days 2 days
[i] How It Ends (2018) [WEBRip] [1080p] [YTS AM] 1.82 GB 2685 1386 4 days 3 days
[i] Furious (2017) [BluRay] [1080p] [YTS AM] 1.9 GB 2622 1258 4 days 3 days
[i] Siberia (2018) [WEBRip] [1080p] [YTS AM] 1.67 GB 1989 917 4 days 3 days
[i] 7 Splinters in Time (2018) [WEBRip] [720p] [YTS AM] 653.09 MB 1218 446 4 days 3 days
[i] Tango One (2018) [BluRay] [720p] [YTS AM] 967.28 MB 1073 689 1 day 21 hours