Skyscraper 2018 720p HDCAM x264 AAC [MW]

Posted by moviefreak •1809 on July 12, 2018 in Movies » Action , verified torrent

Size: 800.62 MB , Seeds: 397 , Peers: 224 ( Updated July 13, 2018 - Refresh )

Quality: Audio 8/10 - Video 7/10 ( defined by users )

* Download via Magnet Link , * To download files you need a Bittorrent Client , * How to download torrents from Bit Torrent Scene?

Scrape History ( seeds + peers )

Internal Files

Skyscraper 2018 720p HDCAM x264 AAC [MW]
Skyscraper 2018 720p HDCAM x264 AAC [MW].mkv   800.62 MB

Hash Code

8ea23087f7c679cdb02b2baab4e986c5e24a9ae1

Description


SCREENSHOT


General
Format : Matroska
Format version : Version 4 / Version 2
File size : 801 MiB
Duration : 1 h 24 min
Overall bit rate : 1 332 kb/s

Video
ID : 1
Format : AVC
Format/Info : Advanced Video Codec
Format profile : [email protected]
Format settings : CABAC / 4 Ref Frames
Format settings, CABAC : Yes
Format settings, RefFrames : 4 frames
Codec ID : V_MPEG4/ISO/AVC
Duration : 1 h 24 min
Bit rate : 1 200 kb/s
Width : 1 178 pixels
Height : 532 pixels
Display aspect ratio : 2.2:1
Frame rate mode : Constant
Frame rate : 29.970 (30000/1001) FPS
Color space : YUV
Chroma subsampling : 4:2:0
Bit depth : 8 bits
Scan type : Progressive
Bits/(Pixel*Frame) : 0.064
Stream size : 722 MiB (90%)
Writing library : x264 core 155 r2901 7d0ff22
Default : Yes
Forced : No

Audio
ID : 2
Format : AAC
Format/Info : Advanced Audio Codec
Format profile : LC
Codec ID : A_AAC-2
Duration : 1 h 24 min
Bit rate : 128 kb/s
Channel(s) : 2 channels
Channel positions : Front: L R
Sampling rate : 48.0 kHz
Frame rate : 46.875 FPS (1024 SPF)
Compression mode : Lossy
Stream size : 76.9 MiB (10%)
Default : Yes
Forced : No


http://pichub.site/image/aMwsd
http://pichub.site/image/aMhzu
http://pichub.site/image/aMi5R
http://pichub.site/image/aMtjs
http://pichub.site/image/aM8wB

Trackers

Refresh Leechers : Updated July 13, 2018

1. udp://tracker.coppersurfer.tk:6969/announce

2. udp://tracker.pirateparty.gr:6969/announce

3. udp://tracker.coppersurfer.tk:6969/announce

4. udp://tracker.leechers-paradise.org:6969/announce

5. udp://eddie4.nl:6969/announce

6. udp://tracker.tiny-vps.com:6969/announce

7. udp://9.rarbg.me:2800/announce

8. udp://9.rarbg.to:2720/announce

9. udp://public.popcorn-tracker.org:6969/announce

10. udp://open.stealth.si:80/announce

11. udp://tracker.vanitycore.co:6969/announce

12. udp://tracker.opentrackr.org:1337/announce

13. udp://bt.firebit.co.uk:6969/announce

14. udp://shadowshq.yi.org:6969/announce

Comments

You must log in to add a comment.

TARDIS66 •12 2018-07-12 23:46:45

AUDIO: 8 - VIDEO: 7

Has 1x bets through the movie Not bad video but not HD to me Sound is good Just ruined by ads

Embed Code

Sharing Widget

Related torrents

FILENAME SIZE SEEDS PEERS ADDED UPD
[i] Skyscraper.2018.720p.HDCAM.1XBET 2.4 GB 173 77 3 days 1 day
[i] Skyscraper 2018 NEW 720p FULL HDCAM X264 HQMic-24HD 2.49 GB 70 74 1 day 3 hours
[i] Skyscraper 2018 NEW 720p FULL HDCAM X264 HQMic-900MB[MOVCR]
posted by Tamilgun in Movies - Misc
909.4 MB 1 22 1 day 1 day
[i] Skyscraper 2018 NEW 720p FULL HDCAM X264 HQMic-24HD[MOVCR]
posted by Tamilgun in Movies - Misc
2.5 GB 1 21 1 day 1 day

Top Movies ( auto generated report )

FILENAME SIZE SEEDS PEERS ADDED UPD
[i] Traffik (2018) [BluRay] [720p] [YTS AM] 820.11 MB 3689 2099 4 days 3 days
[i] 5th Passenger (2018) [WEBRip] [720p] [YTS AM] 770.87 MB 3061 1530 4 days 3 days
[i] 5th Passenger (2018) [WEBRip] [1080p] [YTS AM] 1.44 GB 2701 888 4 days 3 days
[i] Bilal A New Breed of Hero (2015) [WEBRip] [720p] [YTS AM] 940.45 MB 2114 832 4 days 3 days
[i] Traffik (2018) [BluRay] [1080p] [YTS AM] 1.55 GB 2032 850 4 days 3 days
[i] Bilal A New Breed of Hero (2015) [WEBRip] [1080p] [YTS AM] 1.76 GB 1482 403 4 days 1 day
[i] White Fang (2018) [WEBRip] [720p] [YTS AM] 744.41 MB 1446 483 4 days 3 days
[i] Incredibles 2 2018 HDTC XViD AC3-ETRG 1.31 GB 1317 1064 2 days 1 day
[i] The Endless (2017) [BluRay] [720p] [YTS AM] 964.73 MB 1203 447 4 days 3 days
[i] 211 (2018) [BluRay] [720p] [YTS AM] 753.25 MB 1022 408 4 days 3 days